Tes.tudo db » — Красный сад (Red Garden)

Красный сад / Red Garden

Производство: Япония
Жанр: приключения, мистика, ужасы, драма
Тип: ТВ (22 эп.), 23 мин.
Выпуск: c 04.10.2006 по 14.03.2007
Режиссёр: Мацуо Ко
Сценарий: Ханада Дзюкки
Перевод: субтитры


Описание:
Благовоспитанная Кэйт, тихоня Роуз, тусовщица Рэйчел и самостоятельная Клэр — ученицы престижной школы, юные американки. В тот день, когда начинается эта история, они узнают горестную новость: при странных обстоятельствах умерла их подруга и соученица Лиз. Трагическое известие, как и полагается, смущает и ужасает девушек… но что-то еще беспокоит всех четверых, что-то неуловимое, странно-забытое. Безвременная смерть Лиз словно набросила тень на их жизни, связала общей безрадостной тайной…
Несмотря на продолжительность в 22 серии, аниме смотрится быстро. Саундтрек выполнен превосходно, особенно запоминаются песни исполненные самими героинями фильма, точнее теми кто их озвучивал.

Скриншоты:

Техническая информация:

General
Format : Matroska
File size : 170 MiB
Overall bit rate : 1 028 Kbps
Video

Format : AVC
Format/Info : Advanced Video Codec
Format profile : High@L5.1
Format settings, CABAC : Yes
Format settings, ReFrames : 11 frames
Muxing mode : Container profile=Unknown@5.1
Codec ID : V_MPEG4/ISO/AVC
Duration : 23mn 8s
Bit rate : 880 Kbps
Nominal bit rate : 1 019 Kbps
Width : 704 pixels
Height : 400 pixels
Display aspect ratio : 16/9
Frame rate : 29.970 fps
Resolution : 24 bits
Colorimetry : 4:2:0
Scan type : Progressive
Bits/(Pixel*Frame) : 0.104
Stream size : 146 MiB (85%)
Language : Japanese

Audio
Format : MPEG Audio
Format version : Version 1
Format profile : Layer 3
Codec ID : A_MPEG/L3
Codec ID/Hint : MP3
Duration : 23mn 9s
Bit rate mode : Constant
Bit rate : 128 Kbps
Channel(s) : 2 channels
Sampling rate : 48.0 KHz
Resolution : 16 bits
Stream size : 21.2 MiB (12%)
Title : 2.0 MP3
Language : Japanese

Скачать аниме «Red Garden»:

Комментарии (15).

  1. Просто аниме совсем не похоже на другие творения от Гонзы. Здесь почти нет динамики, все внимание уделено взаимоотношениям, пережеваиям. 4 девченки узнали, что все они мертвы, а их нынешняя жизнь дана им взаймы и та оболочка, в которой они находятся — не их настоящие тела. Чтобы продолжить жить им нужно почти каждую ночь убивать людей, которые превратились в монстров. Реакция на подобное у всех была разная: кто-то боялся, кому-то стала безразлична жизнь, кто-то хотел умереть, кто-то смирился. Сначало было нудно, но потом понравилось очень.

  2. Ну эт вы сами виноваты, что не напомнили мне про субтитры. Я их всегда в первую очередь заливаю, поэтому думал, что выложил.
    Постараюсь сегодня дозалить сериал (если проблем с фриспэйсом не будет).
    Добавление:
    Нет, сегодня не получится :(

  3. Добрался-таки, первое впечатление — ужас=)))
    Рисовка очень специфическая, что с их телами что с их лицами, что с их носами в конце концов, жуть, смотрим дальше=)