Tes.tudo db » — Последний вампир (Blood: The Last Vampire)

Последний вампир / Blood: The Last Vampire (Фильм, 2009)

Страна: , , ,
Дата выхода: г.
Жанр: , ,
Тип: п/ф, 01:26:21
Режиссер: Крис Наон / Chris Nahon
В ролях: Джианна Юн / Джун Джи Хьюн / Масьела Луша, Эллисон Миллер, Лиам Каннингэм, , Коюки, Майкл Бирн, Эндрю Плевин, Ларри Ламб и др.
Видео: DVDRip XviD Avi
Аудио: Rus , Eng
Перевод: проф. закадровый, двухголосый

Описание:

В 16-м столетии жестокая война онинов превратила Японию в огромные охотничьи угодья.
Принимая человеческое обличье, демоны расселились среди людей, моля о кровопролитии.
Бесстрашный самурай по имени Киёмаса восстал из самого сердца зла и стал самым почитаемым охотником на демонов, как внезапно был жестоко убит самым старшим и коварным из всех демонов: Ониген.
Прошли века. Власть тьмы продолжалась.
И тогда, появился загадочный охотник. Объединившись с тёмным сообществом, известным как Совет, она отправилась в путешествие, чтобы встретиться со своим злейшим врагом… Ониген.
Киноадаптация знаменитой японской манги.

Скриншоты (10)

Информация о записи:

General
Format                           : AVI
File size                        : 1.36 GiB
Duration                         : 1h 28mn
Overall bit rate                 : 2 202 Kbps

Video
Format                           : MPEG-4 Visual
Codec ID                         : XVID
Bit rate                         : 1 548 Kbps
Width                            : 720 pixels
Height                           : 304 pixels
Display aspect ratio             : 2.35:1
Frame rate                       : 23.976 fps
Bits/(Pixel*Frame)               : 0.295
Stream size                      : 981 MiB (70%)

Audio #1
Format                           : AC-3
Bit rate                         : 192 Kbps
Channel(s)                       : 2 channels
Channel positions                : Front: L R
Sampling rate                    : 48.0 KHz

Audio #2
Format                           : AC-3
Bit rate                         : 448 Kbps
Channel(s)                       : 6 channels
Channel positions                : Front: L C R, Side: L R, LFE
Sampling rate                    : 48.0 KHz
Stream size                      : 284 MiB (20%)
Видео: DVDRip[672x496 25.00fps] XviD[~1462 Kbps] Avi
Аудио:
Rus: AC-3 48kHz stereo 192Kbps(проф. закадровый, двухголосый)
Eng: AC-3 48kHz 6 channels 448 Kbps
Размер: 1,36 gb

Скачать фильм: Последний вампир

Комментарии (3).